۩ ‼ Вы находитесь на Бесплатном торрент-трекере TORRNADA.com ۩ Зарегистрируйтесь для получения полного доступа ко всем функциям сайта ! ۩ После регистрации подпишитесь на нашу рассылку в своём профиле ۩
Auto Web Pinger

 

[Цитировать]

Зинаида Лукьянова | Коллекция видеокурсов по фото-видео обработке от Зинаиды Лукьяновой (2015) PCRec [H.264/720p]- Автор (режиссер): Зинаида Лукьянова
Жанр: Обработка фото
Описание:
Представляю вашему вниманию коллекцию видеокурсов от Зинаиды Лукьяновой, Евгения Карташова, Сергея Патина, Ивана Безрукова, Артема Лукьянова и Марселя Фартудинова которые вышли с 2009 по 2015 года, в этих видеокурсах даются теоритические и практические знания по:
Съемке и расширенной обработке фото и видео
Добавлять профессиональные эффекты к вашим видеофайлам
С легкостью создавать великолепные слайдшоу
Создавать фотокниги в известной всем программе фотошоп
Работать в программе Cinema 4D а имменно моделирование, объекты, источники света, материалы, анимация и др.

В сборник вошли следующие курсы:

5 шагов к хорошему цвету
After Effects для начинающих
Работа в Cinema 4D
Lightroom быстрый старт
Как создать книгу в adobe photoshop
Роскошные слайдшоу за 37 минут
Съемка со вспышкой
Продолжительность: 08:46:00
Качество видео: PCRec
Видео: AVC/H.264, 1280x720, ~471 Kbps
Аудио: AAC, 2 ch, 192 kb/s, CBR

Mediainfo:

General
Complete name                  : I:\Видео\Курсы\After Effects для начинающих\lessons\02\02.mp4
Format                         : MPEG-4
Format profile                 : Base Media / Version 2
Codec ID                       : mp42
File size                      : 103 MiB
Duration                       : 21mn 36s
Overall bit rate mode          : Variable
Overall bit rate               : 665 Kbps
Encoded date                   : UTC 2013-04-22 08:16:36
Tagged date                    : UTC 2013-04-22 08:16:36
gsst                           : 0
gstd                           : 1296113
gssd                           : B4A7DD1E5MM1366705179470752
gshh                           : r5---sn-5hn7su7r.c.youtube.com
Video
ID                             : 1
Format                         : AVC
Format/Info                    : Advanced Video Codec
Format profile                 : High@L3.1
Format settings, CABAC         : Yes
Format settings, ReFrames      : 1 frame
Codec ID                       : avc1
Codec ID/Info                  : Advanced Video Coding
Duration                       : 21mn 36s
Bit rate                       : 471 Kbps
Maximum bit rate               : 3 835 Kbps
Width                          : 1 280 pixels
Height                         : 720 pixels
Display aspect ratio           : 16:9
Frame rate mode                : Constant
Frame rate                     : 15.000 fps
Color space                    : YUV
Chroma subsampling             : 4:2:0
Bit depth                      : 8 bits
Scan type                      : Progressive
Bits/(Pixel*Frame)             : 0.034
Stream size                    : 72.8 MiB (71%)
Tagged date                    : UTC 2013-04-22 08:16:43
Audio
ID                             : 2
Format                         : AAC
Format/Info                    : Advanced Audio Codec
Format profile                 : LC
Codec ID                       : 40
Duration                       : 21mn 36s
Bit rate mode                  : Variable
Bit rate                       : 192 Kbps
Maximum bit rate               : 201 Kbps
Channel(s)                     : 2 channels
Channel positions              : Front: L R
Sampling rate                  : 44.1 KHz
Compression mode               : Lossy
Stream size                    : 29.7 MiB (29%)
Title                          : IsoMedia File Produced by Google, 5-11-2011
Encoded date                   : UTC 2013-04-22 08:16:39
Tagged date                    : UTC 2013-04-22 08:16:43
Скриншоты:

Дополнительные скриншоты:

Не жилим спасибо. Не забываем голосовать за трекер!!!


Показать сообщения:    

Текущее время: 26-Май 14:37

Часовой пояс: UTC + 3


Вы не можете начинать темы
Вы не можете отвечать на сообщения
Вы не можете редактировать свои сообщения
Вы не можете удалять свои сообщения
Вы не можете голосовать в опросах
Вы не можете прикреплять файлы к сообщениям
Вы не можете скачивать файлы

!ВНИМАНИЕ!
Сайт не предоставляет электронные версии произведений, а занимается лишь коллекционированием и каталогизацией ссылок, присылаемых и публикуемых на форуме нашими читателями. Если вы являетесь правообладателем какого-либо представленного материала и не желаете, чтобы ссылка на него находилась в нашем каталоге, свяжитесь с нами, и мы незамедлительно удалим ее. Файлы для обмена на трекере предоставлены пользователями сайта, и администрация не несет ответственности за их содержание. Просьба не заливать файлы, защищенные авторскими правами, а также файлы нелегального содержания!