۩ ‼ Вы находитесь на Бесплатном торрент-трекере TORRNADA.com ۩ Зарегистрируйтесь для получения полного доступа ко всем функциям сайта ! ۩ После регистрации подпишитесь на нашу рассылку в своём профиле ۩
Auto Web Pinger

 

[Цитировать]

Рамзес. Жертва Божьего гнева или человека? / Rameses: Wrath of God or Man? (2004) SATRip - Телекомпания: Atlantic Productions
Режиссер: Том Поллок / Tom Pollock
Жанр: Документальный, постановочный, археология, история, исследования
Описание:
Есть несколько предположений при правлении какого фараона Моисей выводил евреев из египетского рабства. Сейчас ученые склоняются к тому что это был Рамзес II Великий. Этот фараон вошел в историю как смелый воин, успешный правитель и долгожитель (как в жизни так и на троне). Получивший власть в ранней юности, он правил шестьдесят семь лет. А умер почти в девяносто, что для Египта того времени было огромной редкостью. Долгой жизнью считалось если мужчина дотянет хотя бы до сорока пяти. У Рамзеса был огромный гарем и соответствующее количество детей. Но сейчас нас интересует его первенец.
Сразу в памяти всплывает последняя казнь египетская и плачущий фараон, несущий на руках своего мертвого маленького сына. Этого ребенка звали Аменхерхепешеф. А с чего мы вообще взяли что он был маленьким?
Продолжительность: 01:24:07
Качество видео: SATRip
Перевод: Одноголосый закадровый, профессиональный, компания "Видеофильм ТВ"
Видео: Xvid, 720x400, 25fps ~1850 Kbps
Аудио: AC3, 2 ch, 48kHz, 192 kbps

Mediainfo:

Format                         : AVI
Format/Info                    : Audio Video Interleave
File size                      : 1.20 GiB
Duration                       : 1h 24mn
Overall bit rate               : 2 047 Kbps
Writing application            : TMPGEnc Video Mastering Works 5 Version. 5.0.6.38
Writing library                : TMPGEnc Video Mastering Works 5 Version. 5.0.6.38
Video
ID                             : 0
Format                         : MPEG-4 Visual
Format profile                 : Advanced Simple@L5
Format settings, BVOP          : 2
Format settings, QPel          : No
Format settings, GMC           : No warppoints
Format settings, Matrix        : Default (H.263)
Muxing mode                    : Packed bitstream
Codec ID                       : XVID
Codec ID/Hint                  : XviD
Duration                       : 1h 24mn
Bit rate                       : 1 848 Kbps
Width                          : 720 pixels
Height                         : 400 pixels
Display aspect ratio           : 16:9
Frame rate                     : 25.000 fps
Color space                    : YUV
Chroma subsampling             : 4:2:0
Bit depth                      : 8 bits
Scan type                      : Progressive
Compression mode               : Lossy
Bits/(Pixel*Frame)             : 0.257
Stream size                    : 1.09 GiB (90%)
Writing library                : XviD 73
Audio
ID                             : 1
Format                         : AC-3
Format/Info                    : Audio Coding 3
Mode extension                 : CM (complete main)
Format settings, Endianness    : Big
Codec ID                       : 2000
Duration                       : 1h 24mn
Bit rate mode                  : Constant
Bit rate                       : 192 Kbps
Channel(s)                     : 2 channels
Channel positions              : Front: L R
Sampling rate                  : 48.0 KHz
Compression mode               : Lossy
Stream size                    : 116 MiB (9%)
Alignment                      : Aligned on interleaves
Interleave, duration           : 480 ms (12.00 video frames)
Скриншоты:

Дополнительные скриншоты:


Не жилим спасибо. Не забываем голосовать за трекер!!!


Показать сообщения:    

Текущее время: 26-Май 14:49

Часовой пояс: UTC + 3


Вы не можете начинать темы
Вы не можете отвечать на сообщения
Вы не можете редактировать свои сообщения
Вы не можете удалять свои сообщения
Вы не можете голосовать в опросах
Вы не можете прикреплять файлы к сообщениям
Вы не можете скачивать файлы

!ВНИМАНИЕ!
Сайт не предоставляет электронные версии произведений, а занимается лишь коллекционированием и каталогизацией ссылок, присылаемых и публикуемых на форуме нашими читателями. Если вы являетесь правообладателем какого-либо представленного материала и не желаете, чтобы ссылка на него находилась в нашем каталоге, свяжитесь с нами, и мы незамедлительно удалим ее. Файлы для обмена на трекере предоставлены пользователями сайта, и администрация не несет ответственности за их содержание. Просьба не заливать файлы, защищенные авторскими правами, а также файлы нелегального содержания!