۩ ‼ Вы находитесь на Бесплатном торрент-трекере TORRNADA.com ۩ Зарегистрируйтесь для получения полного доступа ко всем функциям сайта ! ۩ После регистрации подпишитесь на нашу рассылку в своём профиле ۩
Auto Web Pinger

 

[Цитировать]

Зверство на голубом экране / Wild in Blue (2014) HDRip - Производство: США
Жанр: Триллер
Режиссер: Мэттью Берковитц
Продюсер: Ардалан Афшар, Мэттью Берковитц, Роберт А. Ферретти
Актеры: Фрэнк Сермак мл., Шарлотта Эллен Прайс, Стив Рейлсбэк, Карен Блэк, Дэйви Чейз, Маркос Матео Очоа, Андреа Лоуелл, Оуэн Тиг, Кэролайн Митчелл, Эйдан Люк Фридберг
Описание:
Главный герой фильма - режиссер. Больше всего на свете он любит женщин. Но его поведение при близости с ними становится слишком агрессивным и неадекватным. Он все больше напоминает маньяка, который наслаждается пытками своих жертв. Когда его фильмы становятся настоящими ужасами, он начинает задумываться над своими поступками и о жизни в целом...

Дата мировой премьеры: 24 апреля 2015
Продолжительность: 01:25:28
Качество видео: HDRip
Перевод: Одноголосый закадровый, любительский (ненормативная лексика)
Озвучка / Автор перевода: datynet / Куценко
Вид субтитров: Отсутствуют
Видео: Xvid, 720x384, ~1865 kb/s
Аудио: AC3, 6 ch, 448 kb/s, CBR
Семпл: Скачать

Mediainfo:

Общее
Полное имя                               : D:\KINO 3\CORCTED\Zverstvo.Na.Golubom.Ekrane.avi
Формат                                   : AVI
Формат/Информация                        : Audio Video Interleave
Размер файла                             : 1,39 Гбайт
Продолжительность                        : 1 ч. 25 м.
Общий поток                              : 2323 Кбит/сек
Программа кодирования                    : VirtualDubMod 1.5.10.2 (build 2540/release)
Библиотека кодирования                   : VirtualDubMod build 2540/release
Видео
Идентификатор                            : 0
Формат                                   : MPEG-4 Visual
Профиль формата                          : Advanced Simple@L5
Параметр BVOP формата                    : 2
Параметр QPel формата                    : Нет
Параметр GMC формата                     : Без точки перехода
Параметр матрицы формата                 : Default (H.263)
Режим смешивания                         : Сжатый битовый поток
Идентификатор кодека                     : XVID
Идентификатор кодека/Подсказка           : XviD
Продолжительность                        : 1 ч. 25 м.
Битрейт                                  : 1865 Кбит/сек
Ширина                                   : 720 пикселей
Высота                                   : 384 пикселя
Соотношение сторон                       : 1,85:1
Частота кадров                           : 23,976 кадра/сек
Цветовое пространство                    : YUV
Субдискретизация насыщенности            : 4:2:0
Битовая глубина                          : 8 бит
Тип развёртки                            : Прогрессивная
Метод сжатия                             : С потерями
Бит/(Пиксели*Кадры)                      : 0.281
Размер потока                            : 1,11 Гбайт (80%)
Библиотека кодирования                   : XviD 66
Аудио
Идентификатор                            : 1
Формат                                   : AC-3
Формат/Информация                        : Audio Coding 3
Расширение режима                        : CM (complete main)
Параметр Endianness формата              : Big
Идентификатор кодека                     : 2000
Продолжительность                        : 1 ч. 25 м.
Вид битрейта                             : Постоянный
Битрейт                                  : 448 Кбит/сек
Каналы                                   : 6 каналов
Расположение каналов                     : Front: L C R, Side: L R, LFE
Частота                                  : 48,0 КГц
Битовая глубина                          : 16 бит
Метод сжатия                             : С потерями
Размер потока                            : 274 Мбайт (19%)
Выравнивание                             : Разделение по промежуткам
Продолжительность промежутка             : 42  мс. (1,00 видеокадр)
Время предзагрузки промежутка            : 500  мс.
Скриншоты:
Не жилим спасибо. Не забываем голосовать за трекер!!!


Показать сообщения:    

Текущее время: 21-Авг 01:47

Часовой пояс: UTC + 3


Вы не можете начинать темы
Вы не можете отвечать на сообщения
Вы не можете редактировать свои сообщения
Вы не можете удалять свои сообщения
Вы не можете голосовать в опросах
Вы не можете прикреплять файлы к сообщениям
Вы не можете скачивать файлы

!ВНИМАНИЕ!
Сайт не предоставляет электронные версии произведений, а занимается лишь коллекционированием и каталогизацией ссылок, присылаемых и публикуемых на форуме нашими читателями. Если вы являетесь правообладателем какого-либо представленного материала и не желаете, чтобы ссылка на него находилась в нашем каталоге, свяжитесь с нами, и мы незамедлительно удалим ее. Файлы для обмена на трекере предоставлены пользователями сайта, и администрация не несет ответственности за их содержание. Просьба не заливать файлы, защищенные авторскими правами, а также файлы нелегального содержания!