۩ ‼ Вы находитесь на Бесплатном торрент-трекере TORRNADA.com ۩ Зарегистрируйтесь для получения полного доступа ко всем функциям сайта ! ۩ После регистрации подпишитесь на нашу рассылку в своём профиле ۩
Auto Web Pinger

 

[Цитировать]

Geekbrains | Серьезный PHP (2014) PCRec [H.264] - Автор (режиссер): Geekbrains
Жанр: Программирование, PHP
Описание:
В этом курсе вы ощутите могущество PHP и узнаете, как с его помощью решать большой круг серьезных задач. Данный набор уроков рекомендуется к изучению всем начинающим (Junior) PHP-программистам, которые хотят поднять свой класс как минимум до уровня Middle. Общая длительность материалов курса - около 20 часов.
Продолжительность: 20:58:18
Качество видео: PCRec
Видео: AVC/H.264, 1024x768, ~~886 - 921 kbps
Аудио: AAC, 2 ch, 84,3 - 95,8 kbps (CBR), 2 Ch, 44100 Hz

Чему вы научитесь

Использовать программы для быстрой разработки.
Выбирать одну из популярных CMS под проект.
Выбирать фреймворк под проект.
Выбирать хостинг для проекта.
Защищать веб-приложения от атак.
Интегрироваться с социальными сетями.
Использовать NoSQL хранилища данных.
БОНУС: основы администрирование Linux-сервера

Программа курса

Урок 1. Программы для веб-разработки
Редакторы и IDE; Бэкап паролей и исходников; Запуск разных браузеров; Управление базами данных; Программы для личной эффективности
Урок 2. Обзор популярных CMS на PHP
Как выбрать CMS для проекта; Wordpress; Joomla; Drupal; Битрикс; Форумы
Урок 3. Обзор PHP-фреймворка Laravel
За что любят Laravel; Основные понятия и структура проекта; Расширяемость; Вспомогательные ресурсы
Урок 4. Обзор микрофреймворков для PHP
Фреймворки, которые можно изучить за 1 вечер; MVC в микрофреймворках; Расширяемость и middleware
Урок 5. Хостинг для сайтов и веб-приложений
Критерии выбора хостинга под свой проект; Виды хостинга - shared, VDS/VPS, облака, PAAS; Российские и зарубежные хостеры; Хостинг для PHP/Python/Ruby
Урок 6. Защита веб-приложений
Кража и взлом паролей; MySQL инъекции; XSS; подделка cookie; атака на редирект; PHP-shell; Поиск вирусов на хостинге
Урок 7. Интеграция с социальными сетями
Вконтакте, Одноклассники Facebook; социальные кнопки; регистрация и авторизация через соцсети; комментирование и голосование через соцсети
Урок 8. NoSQL базы данных
Альтернативы MySQL и их назначение; Ускорение сайта с помощью redis; MongoDB для любителей JavaScript
Урок 9. Бонус от Олега Авдеева: Администрирование Linux сервера
Выбор дистрибутива ОС; Основы администрирования веб-сервера на базе Linux
Урок 10. Бонус от Олега Авдеева: Безопасность Linux-сервера
Безопасный доступ к серверу; Работа с секретными ключами; Настройка firewall

Mediainfo:

D:\Раздачи\GeekBrains Серьезный PHP\Урок 1 Программы для веб-разработки\Часть 1.mp4
   General
      Complete name : D:\Раздачи\GeekBrains Серьезный PHP\Урок 1 Программы для веб-разработки\Часть 1.mp4
      Format : MPEG-4
      Format profile : Base Media / Version 2
      Codec ID : mp42
      File size : 428 MiB
      Duration : 1h 0mn
      Overall bit rate mode : Variable
      Overall bit rate : 989 Kbps
      Encoded date : UTC 2014-06-07 16:52:10
      Tagged date : UTC 2014-06-07 17:19:26
   Video #1
      ID : 1
      Format : AVC
      Format/Info : Advanced Video Codec
      Format profile : Main@L3.1
      Format settings, CABAC : Yes
      Format settings, ReFrames : 5 frames
      Codec ID : avc1
      Codec ID/Info : Advanced Video Coding
      Duration : 1h 0mn
      Bit rate : 903 Kbps
      Width : 1 024 pixels
      Height : 768 pixels
      Display aspect ratio : 4:3
      Frame rate mode : Constant
      Frame rate : 12.000 fps
      Color space : YUV
      Chroma subsampling : 4:2:0
      Bit depth : 8 bits
      Scan type : Progressive
      Bits/(Pixel*Frame) : 0.096
      Stream size : 390 MiB (91%)
      Encoded date : UTC 2014-06-07 16:52:10
      Tagged date : UTC 2014-06-07 17:19:26
      Color primaries : BT.709
      Transfer characteristics : BT.709
      Matrix coefficients : BT.709
   Audio #2
      ID : 2
      Format : AAC
      Format/Info : Advanced Audio Codec
      Format profile : LC
      Codec ID : 40
      Duration : 1h 0mn
      Bit rate mode : Variable
      Bit rate : 83.5 Kbps
      Maximum bit rate : 95.8 Kbps
      Channel(s) : 2 channels
      Channel positions : Front: L R
      Sampling rate : 44.1 KHz
      Compression mode : Lossy
      Stream size : 36.1 MiB (8%)
      Encoded date : UTC 2014-06-07 16:52:10
      Tagged date : UTC 2014-06-07 16:57:04
Скриншоты:

Дополнительные скриншоты: Бонус

Не жилим спасибо. Не забываем голосовать за трекер!!!


Показать сообщения:    

Текущее время: 16-Сен 11:18

Часовой пояс: UTC + 3


Вы не можете начинать темы
Вы не можете отвечать на сообщения
Вы не можете редактировать свои сообщения
Вы не можете удалять свои сообщения
Вы не можете голосовать в опросах
Вы не можете прикреплять файлы к сообщениям
Вы не можете скачивать файлы

!ВНИМАНИЕ!
Сайт не предоставляет электронные версии произведений, а занимается лишь коллекционированием и каталогизацией ссылок, присылаемых и публикуемых на форуме нашими читателями. Если вы являетесь правообладателем какого-либо представленного материала и не желаете, чтобы ссылка на него находилась в нашем каталоге, свяжитесь с нами, и мы незамедлительно удалим ее. Файлы для обмена на трекере предоставлены пользователями сайта, и администрация не несет ответственности за их содержание. Просьба не заливать файлы, защищенные авторскими правами, а также файлы нелегального содержания!