۩ ‼ Вы находитесь на Бесплатном торрент-трекере TORRNADA.com ۩ Зарегистрируйтесь для получения полного доступа ко всем функциям сайта ! ۩ После регистрации подпишитесь на нашу рассылку в своём профиле ۩
Auto Web Pinger

 

[Цитировать]

Как создать идеал / Making Mr. Right (1987) HDTV [H.264/1080i]- Производство: США, Barry & Enright Productions, Orion Pictures
Жанр: Фантастика, Мелодрама, Комедия
Режиссер: Сьюзэн Сейдельман
Актеры: Джон Малкович, Энн Магнусон, Гленн Хедли, Бен Мастерс, Лори Меткаф, Полли Берген, Харш Найяр, Харт Бокнер, Сьюзэн Берман, Полли Дрэйпер
Описание:
Роман между андроидом Улиссисом и «консультантом по имиджу» Фрэнки Стоун. Её мир — это Мелроуз Авеню в стиле Майами, где она занимается публицистской. Короче, все поселились в одном месте — андроид и его создатель доктор Джефф Питерс, чтобы решить, как бы повыгодней продать свое изобретение Американскому народу, пока его не послали в космос. Она учит андроида читать, социальным манерам, но в конце верх берут эмоции.

Продолжительность: 01:34:13
Качество видео: HDTV [1080i]
Перевод: Двуголосый закадровый (НТВ+)
Видео: AVC/H.264, 1920х1080, ~6683 kbps
Аудио: MP2, 2 ch, 192 kbps, CBR
Семпл: Скачать

Mediainfo:

Общее
Идентификатор                            : 16 (0x10)
Полное имя                               : Making Mr. Right_HD.ts
Формат                                   : MPEG-TS
Размер файла                             : 3,80 Гбайт
Продолжительность                        : 1 ч. 34 м.
Режим общего битрейта                    : Переменный
Общий поток                              : 5776 Кбит/сек
Видео
Идентификатор                            : 1606 (0x646)
Идентификатор меню                       : 606 (0x25E)
Формат                                   : AVC
Формат/Информация                        : Advanced Video Codec
Профиль формата                          : High@L4.0
Параметр CABAC формата                   : Да
Параметр ReFrames формата                : 3 кадра
Параметр GOP формата                     : M=4, N=32
Идентификатор кодека                     : 27
Продолжительность                        : 1 ч. 34 м.
Битрейт                                  : 5296 Кбит/сек
Ширина                                   : 1920 пикселей
Высота                                   : 1080 пикселей
Соотношение сторон                       : 16:9
Частота кадров                           : 25,000 кадров/сек
Стандарт вещания                         : PAL
Цветовое пространство                    : YUV
Субдискретизация насыщенности            : 4:2:0
Битовая глубина                          : 8 бит
Тип развёртки                            : Чересстрочная
Порядок развёртки                        : Верхнее поле первое
Бит/(Пиксели*Кадры)                      : 0.102
Размер потока                            : 3,49 Гбайт (92%)
Основные цвета                           : BT.709
Характеристики трансфера                 : BT.709
Коэффициенты матрицы                     : BT.709
Аудио
Идентификатор                            : 2606 (0xA2E)
Идентификатор меню                       : 606 (0x25E)
Формат                                   : MPEG Audio
Версия формата                           : Version 1
Профиль формата                          : Layer 2
Идентификатор кодека                     : 4
Продолжительность                        : 1 ч. 34 м.
Вид битрейта                             : Постоянный
Битрейт                                  : 192 Кбит/сек
Каналы                                   : 2 канала
Частота                                  : 48,0 КГц
Метод сжатия                             : С потерями
Задержка видео                           : 96 мс.
Размер потока                            : 129 Мбайт (3%)
Язык                                     : std
Язык, дополнительно                      : Clean effects
Скриншоты:
Не жилим спасибо. Не забываем голосовать за трекер!!!


Показать сообщения:    

Текущее время: 27-Май 10:16

Часовой пояс: UTC + 3


Вы не можете начинать темы
Вы не можете отвечать на сообщения
Вы не можете редактировать свои сообщения
Вы не можете удалять свои сообщения
Вы не можете голосовать в опросах
Вы не можете прикреплять файлы к сообщениям
Вы не можете скачивать файлы

!ВНИМАНИЕ!
Сайт не предоставляет электронные версии произведений, а занимается лишь коллекционированием и каталогизацией ссылок, присылаемых и публикуемых на форуме нашими читателями. Если вы являетесь правообладателем какого-либо представленного материала и не желаете, чтобы ссылка на него находилась в нашем каталоге, свяжитесь с нами, и мы незамедлительно удалим ее. Файлы для обмена на трекере предоставлены пользователями сайта, и администрация не несет ответственности за их содержание. Просьба не заливать файлы, защищенные авторскими правами, а также файлы нелегального содержания!