۩ ‼ Вы находитесь на Бесплатном торрент-трекере TORRNADA.com ۩ Зарегистрируйтесь для получения полного доступа ко всем функциям сайта ! ۩ После регистрации подпишитесь на нашу рассылку в своём профиле ۩
Auto Web Pinger

 

[Цитировать]

«Одного раза всегда мало»
Перевод: Любительский (многоголосый закадровый) [BadCatStudio]
Cубтитры: русские, английские
Формат: BDRip-AVC, MKV, H.264, AC3
Страна: США, Австралия
Режиссер: Крив Стендерс
Жанр: триллер, боевик, чёрная комедия
Продолжительность: 01:30:32
Год выпуска: 2014
В ролях: Саймон Пегг, Тереза Палмер, Алиси Брага, Люк Хемсворт, Салливан Степлтон, Каллэн Мулвей, Брайан Браун, Стив Ле Маркванд, Тони Спенсер, Анна Филп
Описание: Чарли Вульф — наемный убийца, который ненавидит, когда в его дела вмешивается кто-нибудь посторонний. Однажды к нему обращается старый знакомый Джек Тейлор, который предлагает ему пятьдесят тысяч за убийство своей жены во время ее визита к стоматологу. Выследив жертву, Чарли готовится выполнить заказ, но вскоре замечает, как дантист и его медсестра-ассистентка грузят тело супруги Джека в багажник автомобиля. Киллер совершенно не ожидал такого поворота событий и начал слежку за своими конкурентами. Он уверен только в одном, что смерти этой женщины хочет не только Джек, но возвращать свой гонорар Чарли не намерен...
______ ______
Видео: 1024x424 (2.40:1), 23.976 fps, AVC (H.264), High@L4.1 ~ 1990 Кbps, 0.191 bit/pixel
Аудио #1: Русский: 48 kHz, AC3 Dolby Digital, 3/2 (L,C,R,l,r) + LFE ch, ~384 kbps [Любительский (многоголосый закадровый)]
Аудио #2: Английский: 48 kHz, AC3 Dolby Digital, 3/2 (L,C,R,l,r) + LFE ch, ~384 kbps [Оригинал]

MediaInfo

General
Unique ID : 231787264766512074321239825617375211109 (0xAE609A7809E2444FB21BACD84A542E65)
Complete name : E:\Kill.Me.Three.Times.2014.x264.BDRip.AVC.Rus.Eng.mkv
Format : Matroska
File size : 1.74 GiB
Duration : 1h 30mn
Overall bit rate : 2 759 Kbps
Movie name : Kill.Me.Three.Times.2014.x264.BDRip.AVC.Rus.Eng
Encoded date : UTC 2015-06-30 14:33:24
Writing application : mkvmerge v7.9.0 ('Birds') 64bit
Writing library : libebml v1.3.1 + libmatroska v1.4.2
Video
ID : 1
Format : AVC
Format/Info : Advanced Video Codec
Format profile : High@L4.1
Format settings, CABAC : Yes
Format settings, ReFrames : 11 frames
Codec ID : V_MPEG4/ISO/AVC
Duration : 1h 30mn
Bit rate : 1 990 Kbps
Width : 1 024 pixels
Height : 424 pixels
Display aspect ratio : 2.40:1
Frame rate : 23.976 fps
Color space : YUV
Chroma subsampling : 4:2:0
Bit depth : 8 bits
Scan type : Progressive
Bits/(Pixel*Frame) : 0.191
Stream size : 1.22 GiB (70%)
Title : Kill.Me.Three.Times.2014.x264.BDRip.AVC.Rus.Eng.by.StarbirS
Writing library : x264 core 146 r2538 121396c
Encoding settings : cabac=1 / ref=11 / deblock=1:-3:-3 / analyse=0x3:0x113 / me=umh / subme=11 / psy=1 / psy_rd=1.05:0.05 / mixed_ref=1 / me_range=32 / chroma_me=1 / trellis=2 / 8x8dct=1 / cqm=0 / deadzone=21,11 / fast_pskip=0 / chroma_qp_offset=-3 / threads=12 / lookahead_threads=4 / sliced_threads=0 / nr=0 / decimate=0 / interlaced=0 / bluray_compat=0 / constrained_intra=0 / bframes=8 / b_pyramid=2 / b_adapt=2 / b_bias=0 / direct=3 / weightb=1 / open_gop=1 / weightp=2 / keyint=240 / keyint_min=23 / scenecut=40 / intra_refresh=0 / rc=2pass / mbtree=0 / bitrate=1990 / ratetol=1.0 / qcomp=0.70 / qpmin=0 / qpmax=69 / qpstep=4 / cplxblur=20.0 / qblur=0.5 / ip_ratio=1.40 / pb_ratio=1.30 / aq=1:0.80
Language : English
Audio #1
ID : 2
Format : AC-3
Format/Info : Audio Coding 3
Mode extension : CM (complete main)
Codec ID : A_AC3
Duration : 1h 30mn
Bit rate mode : Constant
Bit rate : 384 Kbps
Channel(s) : 6 channels
Channel positions : Front: L C R, Side: L R, LFE
Sampling rate : 48.0 KHz
Bit depth : 16 bits
Compression mode : Lossy
Stream size : 248 MiB (14%)
Title : Любительский многоголосый (BadCatStudio)
Language : Russian
Audio #2
ID : 3
Format : AC-3
Format/Info : Audio Coding 3
Mode extension : CM (complete main)
Codec ID : A_AC3
Duration : 1h 30mn
Bit rate mode : Constant
Bit rate : 384 Kbps
Channel(s) : 6 channels
Channel positions : Front: L C R, Side: L R, LFE
Sampling rate : 48.0 KHz
Bit depth : 16 bits
Compression mode : Lossy
Stream size : 248 MiB (14%)
Language : English
Text #1
ID : 4
Format : UTF-8
Codec ID : S_TEXT/UTF8
Codec ID/Info : UTF-8 Plain Text
Title : Нотабеноид
Language : Russian
Text #2
ID : 5
Format : UTF-8
Codec ID : S_TEXT/UTF8
Codec ID/Info : UTF-8 Plain Text
Language : English
Menu
00:00:00.000 : en:00:00:00.000
00:07:29.366 : en:00:07:29.366
00:13:41.571 : en:00:13:41.571
00:23:19.732 : en:00:23:19.732
00:30:45.385 : en:00:30:45.385
00:35:43.850 : en:00:35:43.850
00:44:16.863 : en:00:44:16.863
00:49:52.364 : en:00:49:52.364
00:57:46.546 : en:00:57:46.546
01:02:43.760 : en:01:02:43.760
01:12:23.297 : en:01:12:23.297
01:23:49.024 : en:01:23:49.024
Закрыть

Показать скриншоты










Закрыть
Не жилим спасибо. Не забываем голосовать за трекер!!!


Показать сообщения:    

Текущее время: 18-Авг 14:11

Часовой пояс: UTC + 3


Вы не можете начинать темы
Вы не можете отвечать на сообщения
Вы не можете редактировать свои сообщения
Вы не можете удалять свои сообщения
Вы не можете голосовать в опросах
Вы не можете прикреплять файлы к сообщениям
Вы не можете скачивать файлы

!ВНИМАНИЕ!
Сайт не предоставляет электронные версии произведений, а занимается лишь коллекционированием и каталогизацией ссылок, присылаемых и публикуемых на форуме нашими читателями. Если вы являетесь правообладателем какого-либо представленного материала и не желаете, чтобы ссылка на него находилась в нашем каталоге, свяжитесь с нами, и мы незамедлительно удалим ее. Файлы для обмена на трекере предоставлены пользователями сайта, и администрация не несет ответственности за их содержание. Просьба не заливать файлы, защищенные авторскими правами, а также файлы нелегального содержания!