۩ ‼ Вы находитесь на Бесплатном торрент-трекере TORRNADA.com ۩ Зарегистрируйтесь для получения полного доступа ко всем функциям сайта ! ۩ После регистрации подпишитесь на нашу рассылку в своём профиле ۩
Auto Web Pinger

 

[Цитировать]

Мы из джаза (1983) BDRip [H.264/720p]
« Самый лучший фильм о дружбе и джазе »
- Производство: СССР | Мосфильм
Жанр: Комедия, Музыка
Режиссер: Карен Шахназаров
Актеры: Игорь Скляр, Александр Панкратов-Черный, Николай Аверюшкин, Петр Щербаков, Елена Цыплакова, Евгений Евстигнеев, Леонид Куравлёв, Борислав Брондуков, Лариса Долина, Юрий Васильев, Николай Кочегаров, Пётр Меркурьев
Описание: Советская Россия. Двадцатые годы. Времена НЭПа. Студента Одесского музыкального техникума Костю Иванова увлекает новое направление в музыке - джаз. За это увлечение его, комсомольца, выгоняют из техникума, предлагая на выбор - учёба или любимая музыка. Константин выбирает джаз. Костя хочет создать свой джаз-банд. По объявлению к нему приходят два друга-музыканта - Стёпа и Жора. Стёпа играет на банджо, а Жора - на барабанах. Константин заинтересовывает их джазом и, новоиспечённый джаз-банд начинает репетиции…

Возраст: 0+ (для любой зрительской аудитории)
Продолжительность: 01:28:07
Качество видео: BDRip
Субтитры: Отсутствуют
Видео: MPEG-4 AVC/H.264, 6000 Kbps, 992 x 720
Аудио: AC3 5.1, 640 Kbps, 48.0 KHz

MediaInfo

Общее
Полное имя                               : Мы из джаза.mkv
Формат                                   : Matroska
Версия формата                           : Version 1
Размер файла                             : 4,09 Гбайт
Продолжительность                        : 1 ч. 28 м.
Общий поток                              : 6642 Кбит/сек
Дата кодирования                         : UTC 2015-07-04 09:56:49
Программа кодирования                    : mkvmerge v2.4.1 ('Use Me') built on Dec  5 2008 18:30:05
Библиотека кодирования                   : libebml v0.7.7 + libmatroska v0.8.1
Видео
Идентификатор                            : 1
Формат                                   : AVC
Формат/Информация                        : Advanced Video Codec
Профиль формата                          : High@L4.1
Параметр CABAC формата                   : Да
Параметр ReFrames формата                : 10 кадров
Идентификатор кодека                     : V_MPEG4/ISO/AVC
Продолжительность                        : 1 ч. 28 м.
Битрейт                                  : 6000 Кбит/сек
Ширина                                   : 992 пикселя
Высота                                   : 720 пикселей
Соотношение сторон                       : 1,378
Режим частоты кадров                     : Постоянный
Частота кадров                           : 23,976 кадра/сек
Цветовое пространство                    : YUV
Субдискретизация насыщенности            : 4:2:0
Битовая глубина                          : 8 бит
Тип развёртки                            : Прогрессивная
Бит/(Пиксели*Кадры)                      : 0.350
Размер потока                            : 3,61 Гбайт (88%)
Заголовок                                : Мы из джаза (1983)
Библиотека кодирования                   : x264 core 146 r2538 121396c
Настройки программы                      : cabac=1 / ref=10 / deblock=1:-3:-3 / analyse=0x3:0x133 / me=umh / subme=10 / psy=1 / psy_rd=1.00:0.10 / mixed_ref=1 / me_range=48 / chroma_me=1 / trellis=2 / 8x8dct=1 / cqm=0 / deadzone=21,11 / fast_pskip=0 / chroma_qp_offset=-3 / threads=6 / lookahead_threads=1 / sliced_threads=0 / nr=0 / decimate=1 / interlaced=0 / bluray_compat=0 / constrained_intra=0 / bframes=5 / b_pyramid=2 / b_adapt=2 / b_bias=0 / direct=3 / weightb=1 / open_gop=0 / weightp=2 / keyint=240 / keyint_min=22 / scenecut=40 / intra_refresh=0 / rc_lookahead=40 / rc=2pass / mbtree=1 / bitrate=6000 / ratetol=1.0 / qcomp=0.60 / qpmin=10 / qpmax=51 / qpstep=4 / cplxblur=20.0 / qblur=0.5 / ip_ratio=1.40 / aq=1:1.00
Язык                                     : Russian
Default                                  : Да
Forced                                   : Нет
Аудио
Идентификатор                            : 2
Формат                                   : AC-3
Формат/Информация                        : Audio Coding 3
Расширение режима                        : CM (complete main)
Параметр Endianness формата              : Big
Идентификатор кодека                     : A_AC3
Продолжительность                        : 1 ч. 28 м.
Вид битрейта                             : Постоянный
Битрейт                                  : 640 Кбит/сек
Каналы                                   : 6 каналов
Расположение каналов                     : Front: L C R, Side: L R, LFE
Частота                                  : 48,0 КГц
Битовая глубина                          : 16 бит
Метод сжатия                             : С потерями
Размер потока                            : 403 Мбайт (10%)
Заголовок                                : AC3 (Оригинал)
Язык                                     : Russian
Default                                  : Да
Forced                                   : Нет

Дополнительная информация

» На роль Степана пробовались Николай Ерёменко мл. и Леонид Ярмольник.
» На роль Клементины пробовалась Любовь Полищук.
» Лидер проката в СССР 1983 года — 17,1 млн. зрителей.
» В фильме использованы исторические записи музыки 1920-х годов.
» Роль Кости Иванова первоначально предназначалась для Дмитрия Харатьяна. Также на нее пробовались Евгений Дворжецкий и Михаил Ширвиндт.
» За Александра Панкратова-Черного в фильме поёт оператор Владимир Шевцик.
Скриншоты:
Не жилим спасибо. Не забываем голосовать за трекер!!!


Показать сообщения:    

Текущее время: 23-Июл 06:35

Часовой пояс: UTC + 3


Вы не можете начинать темы
Вы не можете отвечать на сообщения
Вы не можете редактировать свои сообщения
Вы не можете удалять свои сообщения
Вы не можете голосовать в опросах
Вы не можете прикреплять файлы к сообщениям
Вы не можете скачивать файлы

!ВНИМАНИЕ!
Сайт не предоставляет электронные версии произведений, а занимается лишь коллекционированием и каталогизацией ссылок, присылаемых и публикуемых на форуме нашими читателями. Если вы являетесь правообладателем какого-либо представленного материала и не желаете, чтобы ссылка на него находилась в нашем каталоге, свяжитесь с нами, и мы незамедлительно удалим ее. Файлы для обмена на трекере предоставлены пользователями сайта, и администрация не несет ответственности за их содержание. Просьба не заливать файлы, защищенные авторскими правами, а также файлы нелегального содержания!