۩ ‼ Вы находитесь на Бесплатном торрент-трекере TORRNADA.com ۩ Зарегистрируйтесь для получения полного доступа ко всем функциям сайта ! ۩ После регистрации подпишитесь на нашу рассылку в своём профиле ۩
Auto Web Pinger

 

[Цитировать]

Glowsun - Beyond The Wall Of Time (2015) - Год: 2015
Жанр: Stoner Psychedelic Rock
Продолжительность: 00:46:48
Кодек: MP3
Битрейт: 320 кб/с
Тип битрейта: CBR
Треклист:
01. Arrow of Time
02. Last Watchmaker's Grave
03. Behind the Moon
04. Flower of Mist
05. Shadow of Dreams
06. Against the Clock
07. Endless Caravan

Спектрограмма:

Mp3tag:

Общее
Полное имя                               : C:\Торрент\Glowsun - Beyond The Wall Of Time (2015)\01. Arrow of Time.mp3
Формат                                   : MPEG Audio
Размер файла                             : 21,1 Мбайт
Продолжительность                        : 9 м. 10 с.
Режим общего битрейта                    : Постоянный
Общий поток                              : 320 Кбит/сек
Альбом                                   : Beyond the Wall of Time
Альбом/Исполнитель                       : Glowsun
Часть/Положение                          : 1
Часть/Всего                              : 1
Трек                                     : Arrow of Time
Трек/Положение                           : 1
Трек/Всего                               : 7
Исполнитель                              : Glowsun
Композитор                               : Fabrice Cornille, Johan Jaccob & Ronan Chiron
Жанр                                     : Rock
Дата записи                              : 2015
Библиотека кодирования                   : LAME3.99r
Обложка                                  : Yes
Тип обложки                              : Cover (front)
MIME-тип обложки                         : image/jpeg
Аудио
Формат                                   : MPEG Audio
Версия формата                           : Version 1
Профиль формата                          : Layer 3
Режим                                    : Joint stereo
Продолжительность                        : 9 м. 10 с.
Вид битрейта                             : Постоянный
Битрейт                                  : 320 Кбит/сек
Каналы                                   : 2 канала
Частота                                  : 44,1 КГц
Метод сжатия                             : С потерями
Размер потока                            : 21,0 Мбайт (100%)
Библиотека кодирования                   : LAME3.99r
Настройки программы                      : -m j -V 4 -q 3 -lowpass 20.5
Общее
Полное имя                               : C:\Торрент\Glowsun - Beyond The Wall Of Time (2015)\02. Last Watchmaker's Grave.mp3
Формат                                   : MPEG Audio
Размер файла                             : 21,1 Мбайт
Продолжительность                        : 9 м. 11 с.
Режим общего битрейта                    : Постоянный
Общий поток                              : 320 Кбит/сек
Альбом                                   : Beyond the Wall of Time
Альбом/Исполнитель                       : Glowsun
Часть/Положение                          : 1
Часть/Всего                              : 1
Трек                                     : Last Watchmaker's Grave
Трек/Положение                           : 2
Трек/Всего                               : 7
Исполнитель                              : Glowsun
Композитор                               : Fabrice Cornille, Johan Jaccob & Ronan Chiron
Жанр                                     : Rock
Дата записи                              : 2015
Библиотека кодирования                   : LAME3.99r
Обложка                                  : Yes
Тип обложки                              : Cover (front)
MIME-тип обложки                         : image/jpeg
Аудио
Формат                                   : MPEG Audio
Версия формата                           : Version 1
Профиль формата                          : Layer 3
Режим                                    : Joint stereo
Расширение режима                        : MS Stereo
Продолжительность                        : 9 м. 12 с.
Вид битрейта                             : Постоянный
Битрейт                                  : 320 Кбит/сек
Каналы                                   : 2 канала
Частота                                  : 44,1 КГц
Метод сжатия                             : С потерями
Размер потока                            : 21,0 Мбайт (100%)
Библиотека кодирования                   : LAME3.99r
Настройки программы                      : -m j -V 4 -q 3 -lowpass 20.5
Общее
Полное имя                               : C:\Торрент\Glowsun - Beyond The Wall Of Time (2015)\03. Behind the Moon.mp3
Формат                                   : MPEG Audio
Размер файла                             : 15,9 Мбайт
Продолжительность                        : 6 м. 54 с.
Режим общего битрейта                    : Постоянный
Общий поток                              : 320 Кбит/сек
Альбом                                   : Beyond the Wall of Time
Альбом/Исполнитель                       : Glowsun
Часть/Положение                          : 1
Часть/Всего                              : 1
Трек                                     : Behind the Moon
Трек/Положение                           : 3
Трек/Всего                               : 7
Исполнитель                              : Glowsun
Композитор                               : Fabrice Cornille, Johan Jaccob & Ronan Chiron
Жанр                                     : Rock
Дата записи                              : 2015
Библиотека кодирования                   : LAME3.99r
Обложка                                  : Yes
Тип обложки                              : Cover (front)
MIME-тип обложки                         : image/jpeg
Аудио
Формат                                   : MPEG Audio
Версия формата                           : Version 1
Профиль формата                          : Layer 3
Режим                                    : Joint stereo
Продолжительность                        : 6 м. 54 с.
Вид битрейта                             : Постоянный
Битрейт                                  : 320 Кбит/сек
Каналы                                   : 2 канала
Частота                                  : 44,1 КГц
Метод сжатия                             : С потерями
Размер потока                            : 15,8 Мбайт (99%)
Библиотека кодирования                   : LAME3.99r
Настройки программы                      : -m j -V 4 -q 3 -lowpass 20.5
Общее
Полное имя                               : C:\Торрент\Glowsun - Beyond The Wall Of Time (2015)\04. Flower of Mist.mp3
Формат                                   : MPEG Audio
Размер файла                             : 16,3 Мбайт
Продолжительность                        : 7 м. 5 с.
Режим общего битрейта                    : Постоянный
Общий поток                              : 320 Кбит/сек
Альбом                                   : Beyond the Wall of Time
Альбом/Исполнитель                       : Glowsun
Часть/Положение                          : 1
Часть/Всего                              : 1
Трек                                     : Flower of Mist
Трек/Положение                           : 4
Трек/Всего                               : 7
Исполнитель                              : Glowsun
Композитор                               : Fabrice Cornille, Johan Jaccob & Ronan Chiron
Жанр                                     : Rock
Дата записи                              : 2015
Библиотека кодирования                   : LAME3.99r
Обложка                                  : Yes
Тип обложки                              : Cover (front)
MIME-тип обложки                         : image/jpeg
Аудио
Формат                                   : MPEG Audio
Версия формата                           : Version 1
Профиль формата                          : Layer 3
Режим                                    : Joint stereo
Продолжительность                        : 7 м. 5 с.
Вид битрейта                             : Постоянный
Битрейт                                  : 320 Кбит/сек
Каналы                                   : 2 канала
Частота                                  : 44,1 КГц
Метод сжатия                             : С потерями
Размер потока                            : 16,2 Мбайт (99%)
Библиотека кодирования                   : LAME3.99r
Настройки программы                      : -m j -V 4 -q 3 -lowpass 20.5
Общее
Полное имя                               : C:\Торрент\Glowsun - Beyond The Wall Of Time (2015)\05. Shadow of Dreams.mp3
Формат                                   : MPEG Audio
Размер файла                             : 14,6 Мбайт
Продолжительность                        : 6 м. 19 с.
Режим общего битрейта                    : Постоянный
Общий поток                              : 320 Кбит/сек
Альбом                                   : Beyond the Wall of Time
Альбом/Исполнитель                       : Glowsun
Часть/Положение                          : 1
Часть/Всего                              : 1
Трек                                     : Shadow of Dreams
Трек/Положение                           : 5
Трек/Всего                               : 7
Исполнитель                              : Glowsun
Композитор                               : Fabrice Cornille, Johan Jaccob & Ronan Chiron
Жанр                                     : Rock
Дата записи                              : 2015
Библиотека кодирования                   : LAME3.99r
Обложка                                  : Yes
Тип обложки                              : Cover (front)
MIME-тип обложки                         : image/jpeg
Аудио
Формат                                   : MPEG Audio
Версия формата                           : Version 1
Профиль формата                          : Layer 3
Режим                                    : Joint stereo
Продолжительность                        : 6 м. 19 с.
Вид битрейта                             : Постоянный
Битрейт                                  : 320 Кбит/сек
Каналы                                   : 2 канала
Частота                                  : 44,1 КГц
Метод сжатия                             : С потерями
Размер потока                            : 14,5 Мбайт (99%)
Библиотека кодирования                   : LAME3.99r
Настройки программы                      : -m j -V 4 -q 3 -lowpass 20.5
Общее
Полное имя                               : C:\Торрент\Glowsun - Beyond The Wall Of Time (2015)\06. Against the Clock.mp3
Формат                                   : MPEG Audio
Размер файла                             : 12,4 Мбайт
Продолжительность                        : 5 м. 21 с.
Режим общего битрейта                    : Постоянный
Общий поток                              : 320 Кбит/сек
Альбом                                   : Beyond the Wall of Time
Альбом/Исполнитель                       : Glowsun
Часть/Положение                          : 1
Часть/Всего                              : 1
Трек                                     : Against the Clock
Трек/Положение                           : 6
Трек/Всего                               : 7
Исполнитель                              : Glowsun
Композитор                               : Fabrice Cornille, Johan Jaccob & Ronan Chiron
Жанр                                     : Rock
Дата записи                              : 2015
Библиотека кодирования                   : LAME3.99r
Обложка                                  : Yes
Тип обложки                              : Cover (front)
MIME-тип обложки                         : image/jpeg
Аудио
Формат                                   : MPEG Audio
Версия формата                           : Version 1
Профиль формата                          : Layer 3
Режим                                    : Joint stereo
Продолжительность                        : 5 м. 22 с.
Вид битрейта                             : Постоянный
Битрейт                                  : 320 Кбит/сек
Каналы                                   : 2 канала
Частота                                  : 44,1 КГц
Метод сжатия                             : С потерями
Размер потока                            : 12,3 Мбайт (99%)
Библиотека кодирования                   : LAME3.99r
Настройки программы                      : -m j -V 4 -q 3 -lowpass 20.5
Общее
Полное имя                               : C:\Торрент\Glowsun - Beyond The Wall Of Time (2015)\07. Endless Caravan.mp3
Формат                                   : MPEG Audio
Размер файла                             : 6,41 Мбайт
Продолжительность                        : 2 м. 45 с.
Режим общего битрейта                    : Постоянный
Общий поток                              : 320 Кбит/сек
Альбом                                   : Beyond the Wall of Time
Альбом/Исполнитель                       : Glowsun
Часть/Положение                          : 1
Часть/Всего                              : 1
Трек                                     : Endless Caravan
Трек/Положение                           : 7
Трек/Всего                               : 7
Исполнитель                              : Glowsun
Композитор                               : Fabrice Cornille, Johan Jaccob & Ronan Chiron
Жанр                                     : Rock
Дата записи                              : 2015
Библиотека кодирования                   : LAME3.99r
Обложка                                  : Yes
Тип обложки                              : Cover (front)
MIME-тип обложки                         : image/jpeg
Аудио
Формат                                   : MPEG Audio
Версия формата                           : Version 1
Профиль формата                          : Layer 3
Режим                                    : Joint stereo
Продолжительность                        : 2 м. 45 с.
Вид битрейта                             : Постоянный
Битрейт                                  : 320 Кбит/сек
Каналы                                   : 2 канала
Частота                                  : 44,1 КГц
Метод сжатия                             : С потерями
Размер потока                            : 6,32 Мбайт (99%)
Библиотека кодирования                   : LAME3.99r
Настройки программы                      : -m j -V 4 -q 3 -lowpass 20.5
Общее
Полное имя                               : C:\Торрент\Glowsun - Beyond The Wall Of Time (2015)\Cover.jpg
Формат                                   : JPEG
Размер файла                             : 93,1 Кбайт
Изображения
Формат                                   : JPEG
Ширина                                   : 440 пикселей
Высота                                   : 440 пикселей
Цветовое пространство                    : YUV
Субдискретизация насыщенности            : 4:2:0
Битовая глубина                          : 8 бит
Метод сжатия                             : С потерями
Размер потока                            : 93,1 Кбайт (100%)
Не жилим спасибо. Не забываем голосовать за трекер!!!
[small.torrnada.com].t104051.torrent
Торрент: Зарегистрирован   [ 2015-07-04 21:52 ] · D9E6AA5AF047AA1DDA54AEFA77BA7CEEF0A5D9E0

Скачать .torrent

Скачать

18 KB

Статус: проверено
Скачан: 40 раз
Размер: 108 MB
Оценка:  - (Голосов: 0) СуперХорошоСреднеТак себеОтстой
Поблагодарили: 0  Спасибо
Поделится:


Показать сообщения:    

Текущее время: 16-Июл 13:26

Часовой пояс: UTC + 3


Вы не можете начинать темы
Вы не можете отвечать на сообщения
Вы не можете редактировать свои сообщения
Вы не можете удалять свои сообщения
Вы не можете голосовать в опросах
Вы не можете прикреплять файлы к сообщениям
Вы можете скачивать файлы

!ВНИМАНИЕ!
Сайт не предоставляет электронные версии произведений, а занимается лишь коллекционированием и каталогизацией ссылок, присылаемых и публикуемых на форуме нашими читателями. Если вы являетесь правообладателем какого-либо представленного материала и не желаете, чтобы ссылка на него находилась в нашем каталоге, свяжитесь с нами, и мы незамедлительно удалим ее. Файлы для обмена на трекере предоставлены пользователями сайта, и администрация не несет ответственности за их содержание. Просьба не заливать файлы, защищенные авторскими правами, а также файлы нелегального содержания!