۩ ‼ Вы находитесь на Бесплатном торрент-трекере TORRNADA.com ۩ Зарегистрируйтесь для получения полного доступа ко всем функциям сайта ! ۩ После регистрации подпишитесь на нашу рассылку в своём профиле ۩
Auto Web Pinger

 

[Цитировать]

Неупокоенная / Dark Summer (2015) BDRip [H.264/720p] [EN]
- Производство: США, Великобритания, ContentFilm International, Preferred Film & TV
Жанр: триллер
Режиссер: Пол Солет
Актеры: Кейр Гилкрист, Стелла Маив, Маэстро Харрелл, Грэйс Фиппс, Петер Стормаре
Описание:
История Дениэла Уильямса, 17-летнего подростка, которого суд приговорил к домашнему аресту на все лето. Пока его мать отлучилась по делам, в доме происходит происшествие, которое влечет за собой цепь страшных и непредсказуемых событий. Одноклассница Дениэла звонит ему по скайпу и обвиняет его в том, что он довел ее до самоубийства. Обвиняет и убивает себя прямо на его глазах. Перед смертью она говорит, что придет к нему после смерти и заберет его с собой...

Продолжительность: 01:21:45
Качество видео: BDRip [H.264/720p]
Перевод: Отсутствует
Язык озвучки: Английский
Видео: AVC, 1280x720 (16:9), 6139 kbps, 23,976 fps, 0,278 bpp
Аудио: английский / DTS / 5.1 / 48 kHz / 1510 kbps / 24 bit

MediaInfo

General
Unique ID
Complete name                          Dark.Summer.2015.720p.mkv
Format                                   : Matroska
Format version                           : Version 4 / Version 2
File size                                : 4.37 GiB
Duration                                 : 1h 21mn
Overall bit rate                         : 7 651 Kbps
Encoded date                             : UTC 2015-06-25 23:47:58
Writing application                      : mkvmerge v6.2.0 ('Promised Land') built on Apr 28 2013 12:22:01
Writing library                          : libebml v1.3.0 + libmatroska v1.4.0
Video
ID                                       : 1
Format                                   : AVC
Format/Info                              : Advanced Video Codec
Format profile                           : High@L4.1
Format settings, CABAC                   : Yes
Format settings, ReFrames                : 5 frames
Codec ID                                 : V_MPEG4/ISO/AVC
Duration                                 : 1h 21mn
Bit rate                                 : 6 139 Kbps
Width                                    : 1 280 pixels
Height                                   : 720 pixels
Display aspect ratio                     : 16:9
Frame rate                               : 23.976 fps
Color space                              : YUV
Chroma subsampling                       : 4:2:0
Bit depth                                : 8 bits
Scan type                                : Progressive
Bits/(Pixel*Frame)                       : 0.278
Stream size                              : 3.42 GiB (78%)
Writing library                          : x264 core 146 r2538 121396c
Encoding settings                        : cabac=1 / ref=5 / deblock=1:0:0 / analyse=0x3:0x133 / me=umh / subme=7 / psy=1 / psy_rd=1.00:0.00 / mixed_ref=1 / me_range=16 / chroma_me=1 / trellis=1 / 8x8dct=1 / cqm=0 / deadzone=21,11 / fast_pskip=0 / chroma_qp_offset=-2 / threads=18 / lookahead_threads=3 / sliced_threads=0 / nr=0 / decimate=1 / interlaced=0 / bluray_compat=0 / constrained_intra=0 / bframes=3 / b_pyramid=2 / b_adapt=1 / b_bias=0 / direct=1 / weightb=1 / open_gop=0 / weightp=2 / keyint=250 / keyint_min=23 / scenecut=40 / intra_refresh=0 / rc_lookahead=40 / rc=2pass / mbtree=1 / bitrate=6139 / ratetol=1.0 / qcomp=0.60 / qpmin=0 / qpmax=69 / qpstep=4 / cplxblur=20.0 / qblur=0.5 / ip_ratio=1.40 / aq=1:1.00
Language                                 : English
Default                                  : Yes
Forced                                   : No
Audio
ID                                       : 2
Format                                   : DTS
Format/Info                              : Digital Theater Systems
Codec ID                                 : A_DTS
Duration                                 : 1h 21mn
Bit rate mode                            : Constant
Bit rate                                 : 1 510 Kbps
Channel(s)                               : 6 channels
Channel positions                        : Front: L C R, Side: L R, LFE
Sampling rate                            : 48.0 KHz
Bit depth                                : 24 bits
Compression mode                         : Lossy
Stream size                              : 883 MiB (20%)
Language                                 : English
Default                                  : Yes
Forced                                   : No
Menu
00:00:00.000                             : en:00:00:00.000
00:07:55.975                             : en:00:07:55.975
00:18:45.875                             : en:00:18:45.875
00:29:16.880                             : en:00:29:16.880
00:39:59.647                             : en:00:39:59.647
00:51:21.996                             : en:00:51:21.996
01:02:44.260                             : en:01:02:44.260
01:16:16.614                             : en:01:16:16.614
-Скриншоты:
Не жилим спасибо. Не забываем голосовать за трекер!!!


Показать сообщения:    

Текущее время: 18-Авг 14:05

Часовой пояс: UTC + 3


Вы не можете начинать темы
Вы не можете отвечать на сообщения
Вы не можете редактировать свои сообщения
Вы не можете удалять свои сообщения
Вы не можете голосовать в опросах
Вы не можете прикреплять файлы к сообщениям
Вы не можете скачивать файлы

!ВНИМАНИЕ!
Сайт не предоставляет электронные версии произведений, а занимается лишь коллекционированием и каталогизацией ссылок, присылаемых и публикуемых на форуме нашими читателями. Если вы являетесь правообладателем какого-либо представленного материала и не желаете, чтобы ссылка на него находилась в нашем каталоге, свяжитесь с нами, и мы незамедлительно удалим ее. Файлы для обмена на трекере предоставлены пользователями сайта, и администрация не несет ответственности за их содержание. Просьба не заливать файлы, защищенные авторскими правами, а также файлы нелегального содержания!