۩ ‼ Вы находитесь на Бесплатном торрент-трекере TORRNADA.com ۩ Зарегистрируйтесь для получения полного доступа ко всем функциям сайта ! ۩ После регистрации подпишитесь на нашу рассылку в своём профиле ۩
Auto Web Pinger

 

[Цитировать]

Дом / Home (2015) BDRip [H.264/1080p]- Производство: США, DreamWorks Animation
Жанр: Мультфильм, Фантастика, Фэнтези, Комедия, Приключения, Семейный
Режиссер: Тим Джонсон
Персонажи: Джим Парсонс, Рианна, Стив Мартин, Дженнифер Лопез, Мэтт Джонс, Брайан Степанек, Эйприл Стрюбинг, Стивен Кеарин, Лиза Стюарт, Эйприл Уинчелл
Описание:
Инопланетная раса бувов во главе с капитаном Смеком захватывает Землю, чтобы укрыться от своих смертельных врагов и обрести новый дом. Руководствуясь благими намерениями, бувы начинают переселять расу людей, но одной находчивой девушке по имени Тип удаётся сбежать. В бегах она встречается с изгнанным бувом по имени О, который случайно уведомил врагов о своём местонахождении.

Дата мировой премьеры: 7 марта 2015
Дата премьеры в России: 19 марта 2015, «Двадцатый Век Фокс СНГ»
Дата премьеры в Украине: 19 марта 2015, «Ukrainian Film Distribution»
Дата выхода DVD/Blu-ray релиза: 23 июля 2015, «Двадцатый Век Фокс СНГ»
Продолжительность: 01:33:48
Качество видео: BDRip [H.264/1080p]
Перевод: Дублированный (iTunes)
Субтитры: Вшитые отключаемые
Язык субтитров: Английский
Видео: AVC/H.264, 1920x1040, ~5159 kbps
Аудио #1: Русский: AC-3, 48.0 KHz, 6 ch, 384 Kbps, CBR
Аудио #2: Английский: DTS ES, 48.0 KHz, 6 ch, 1510 Kbps, CBR
Сэмпл: Скачать

MediaInfo:

Общее
Уникальный идентификатор                 : 202446788392900051631547769784581689664 (0x984DD54C02E83CE2A86B48BABA0B1140)
Полное имя                               : D:\Фильмы\Dom.2015.D.BDRip.1080p.mkv
Формат                                   : Matroska
Версия формата                           : Version 4 / Version 2
Размер файла                             : 4,62 Гбайт
Продолжительность                        : 1 ч. 33 м.
Общий поток                              : 7052 Кбит/сек
Дата кодирования                         : UTC 2015-07-03 19:42:03
Программа кодирования                    : mkvmerge v6.9.1 ('Blue Panther') 64bit built on Apr 18 2014 18:23:38
Библиотека кодирования                   : libebml v1.3.0 + libmatroska v1.4.1
Видео
Идентификатор                            : 1
Формат                                   : AVC
Формат/Информация                        : Advanced Video Codec
Профиль формата                          : High@L4.1
Параметр CABAC формата                   : Да
Параметр ReFrames формата                : 4 кадра
Идентификатор кодека                     : V_MPEG4/ISO/AVC
Продолжительность                        : 1 ч. 33 м.
Битрейт                                  : 5160 Кбит/сек
Ширина                                   : 1920 пикселей
Высота                                   : 1040 пикселей
Соотношение сторон                       : 1,85:1
Режим частоты кадров                     : Постоянный
Частота кадров                           : 23,976 кадра/сек
Цветовое пространство                    : YUV
Субдискретизация насыщенности            : 4:2:0
Битовая глубина                          : 8 бит
Тип развёртки                            : Прогрессивная
Бит/(Пиксели*Кадры)                      : 0.108
Размер потока                            : 3,29 Гбайт (71%)
Библиотека кодирования                   : x264 core 146 r2538 121396c
Настройки программы                      : cabac=1 / ref=4 / deblock=1:0:0 / analyse=0x3:0x133 / me=umh / subme=7 / psy=1 / psy_rd=1.00:0.00 / mixed_ref=1 / me_range=16 / chroma_me=1 / trellis=1 / 8x8dct=1 / cqm=0 / deadzone=21,11 / fast_pskip=0 / chroma_qp_offset=-2 / threads=12 / lookahead_threads=2 / sliced_threads=0 / nr=0 / decimate=1 / interlaced=0 / bluray_compat=0 / constrained_intra=0 / bframes=3 / b_pyramid=2 / b_adapt=1 / b_bias=0 / direct=1 / weightb=1 / open_gop=0 / weightp=2 / keyint=250 / keyint_min=23 / scenecut=40 / intra_refresh=0 / rc_lookahead=40 / rc=2pass / mbtree=1 / bitrate=5160 / ratetol=1.0 / qcomp=0.60 / qpmin=0 / qpmax=69 / qpstep=4 / cplxblur=20.0 / qblur=0.5 / ip_ratio=1.40 / aq=1:1.00
Default                                  : Да
Forced                                   : Нет
Аудио #1
Идентификатор                            : 2
Формат                                   : AC-3
Формат/Информация                        : Audio Coding 3
Расширение режима                        : CM (complete main)
Параметр Endianness формата              : Big
Идентификатор кодека                     : A_AC3
Продолжительность                        : 1 ч. 33 м.
Вид битрейта                             : Постоянный
Битрейт                                  : 384 Кбит/сек
Каналы                                   : 6 каналов
Расположение каналов                     : Front: L C R, Side: L R, LFE
Частота                                  : 48,0 КГц
Метод сжатия                             : С потерями
Размер потока                            : 258 Мбайт (5%)
Язык                                     : Russian
Default                                  : Да
Forced                                   : Нет
Аудио #2
Идентификатор                            : 3
Формат                                   : DTS
Формат/Информация                        : Digital Theater Systems
Профиль формата                          : ES
Режим                                    : 16
Параметр Endianness формата              : Big
Идентификатор кодека                     : A_DTS
Продолжительность                        : 1 ч. 33 м.
Вид битрейта                             : Постоянный
Битрейт                                  : 1509 Кбит/сек
Каналы                                   : 6 каналов
Расположение каналов                     : Front: L C R, Side: L R, LFE
Частота                                  : 48,0 КГц
Битовая глубина                          : 24 бит
Метод сжатия                             : С потерями
Размер потока                            : 1013 Мбайт (21%)
Заголовок                                : English
Язык                                     : English
Default                                  : Нет
Forced                                   : Нет
Текст
Идентификатор                            : 4
Формат                                   : UTF-8
Идентификатор кодека                     : S_TEXT/UTF8
Идентификатор кодека/Информация          : UTF-8 Plain Text
Заголовок                                : English
Язык                                     : English
Default                                  : Нет
Forced                                   : Нет
Меню
00:00:00.000                             : en:00:00:00.000
00:03:43.723                             : en:00:03:43.723
00:07:28.406                             : en:00:07:28.406
00:11:19.470                             : en:00:11:19.470
00:14:26.949                             : en:00:14:26.949
00:17:58.953                             : en:00:17:58.953
00:21:05.639                             : en:00:21:05.639
00:25:18.851                             : en:00:25:18.851
00:29:07.079                             : en:00:29:07.079
00:33:14.618                             : en:00:33:14.618
00:38:58.962                             : en:00:38:58.962
00:41:31.155                             : en:00:41:31.155
00:44:27.540                             : en:00:44:27.540
00:46:50.933                             : en:00:46:50.933
00:51:34.758                             : en:00:51:34.758
00:56:25.924                             : en:00:56:25.924
01:00:43.682                             : en:01:00:43.682
01:03:53.496                             : en:01:03:53.496
01:06:57.722                             : en:01:06:57.722
01:09:44.180                             : en:01:09:44.180
01:13:55.765                             : en:01:13:55.765
01:18:11.770                             : en:01:18:11.770
01:21:55.369                             : en:01:21:55.369
01:23:56.031                             : en:01:23:56.031

Avdump:

File: D:\Фильмы\Dom.2015.D.BDRip.1080p.mkv
Duration: 01:33:50 (5630.02) - WARNING: Differs from video duration! (1.94 sec)
Track #1: video
lang: und (1)
codc: V_MPEG4/ISO/AVC -> H264/AVC (22)
reso: 1920x1040 -> Unknown (aka not common)
fram: 23.976025 fps
rate: 5159 kbps (5158.527344)
dura: 01:33:48 (5628.081055)
size: 3.38 GB (3629076182)
Track #2: audio
lang: rus -> Russian (15)
codc: A_AC3 -> AC3 (2)
chan: 6 -> 5.1 Surround
samp: 48000 Hz
rate: 384 kbps (384.04)
dura: 01:33:50 (5629.86)
size: 257.74 MB (270264012)
Track #3: audio (English)
lang: Unknown (1)
codc: A_DTS -> DTS (13)
chan: 6 -> 5.1 Surround
samp: 48000 Hz
rate: 1509 kbps (1509.11)
dura: 01:33:48 (5628.12)
size: 0.99 GB (1061680899)
Track #4: subtitles (English)
lang: Unknown (1)
type: S_TEXT/UTF8 -> SRT (3)
size: 31.27 KB (32021)
Sizes: (check sanity)
disk: 4.62 GB (4962850308)
trac: 4.62 GB (4961053114) [based on track size]
bitr: 4.62 GB (4960928793) [based on bitrate]
tdif: 1.71 MB (1797194) 0.03%
bdif: 1.83 MB (1921514) 0.03%

Знаете ли вы, что...:

• Фильм основан на книге Адама Рекса «The True Meaning of Smekday» (Настоящее значение Дня Смека).
• Изначально персонажа Джима Парсонса звали «Джей Ло» (J. Lo), однако в итоге имя изменили на «О» (Oh). В реальной жизни Джей Ло – это прозвище Дженнифер Лопез, которая, кстати, тоже озвучивала одного из персонажей фильма.
Скриншоты:
Не жилим спасибо. Не забываем голосовать за трекер!!!

Топик был перенесен из форума Иностранные в форум Мультфильмы (HD-FullHD)
killer110289


Показать сообщения:    

Текущее время: 17-Авг 18:49

Часовой пояс: UTC + 3


Вы не можете начинать темы
Вы не можете отвечать на сообщения
Вы не можете редактировать свои сообщения
Вы не можете удалять свои сообщения
Вы не можете голосовать в опросах
Вы не можете прикреплять файлы к сообщениям
Вы не можете скачивать файлы

!ВНИМАНИЕ!
Сайт не предоставляет электронные версии произведений, а занимается лишь коллекционированием и каталогизацией ссылок, присылаемых и публикуемых на форуме нашими читателями. Если вы являетесь правообладателем какого-либо представленного материала и не желаете, чтобы ссылка на него находилась в нашем каталоге, свяжитесь с нами, и мы незамедлительно удалим ее. Файлы для обмена на трекере предоставлены пользователями сайта, и администрация не несет ответственности за их содержание. Просьба не заливать файлы, защищенные авторскими правами, а также файлы нелегального содержания!