۩ ‼ Вы находитесь на Бесплатном торрент-трекере TORRNADA.com ۩ Зарегистрируйтесь для получения полного доступа ко всем функциям сайта ! ۩ После регистрации подпишитесь на нашу рассылку в своём профиле ۩
Auto Web Pinger

 

[Цитировать]

Учебный центр 1C | Ведение бухгалтерского учета в 1С Предприятие 8.2 Редакция 3.0 (2015) PCRec [H.264]- Автор (режиссер): Учебный центр 1C
Жанр: Программирование
Описание:
Пройдя курс, Вы сможете самостоятельно, без посторонней помощи:
готовить программу к эксплуатации;
вводить начальные остатки;
добавлять первичную информацию (платежки, ордера, контрагентов, накладные т.д.);
вести документооборот на каждом участке учета;
вести учет расчетов по НДС;
вести учет расчетов по налогу на прибыль в соответствии с ПБУ 18/02;
вести учет доходов и расходов для целей налогообложения налогом на прибыль организаций;
формировать регламентированную отчетность;
получить престижный сертификат "1С:Профессионал".
Продолжительность: 21:04:26
Качество видео: PCRec
Видео: AVC/H.264, 960x720, ~294 kbps
Аудио: AAC, 2 ch, 115 kbps, VBR

Mediainfo:

Общее
Полное имя                               : D:\Ведение бухгалтерского учета в 1С Предприятие 8\1.mp4
Формат                                   : MPEG-4
Профиль формата                          : Base Media
Идентификатор кодека                     : isom
Размер файла                             : 114 Мбайт
Продолжительность                        : 38 м.
Режим общего битрейта                    : Переменный
Общий поток                              : 411 Кбит/сек
Дата кодирования                         : UTC 2014-07-11 09:16:41
Дата пометки                             : UTC 2014-07-11 09:16:41
Программа кодирования                    : FormatFactory : www.pcfreetime.com
Видео
Идентификатор                            : 1
Формат                                   : AVC
Формат/Информация                        : Advanced Video Codec
Профиль формата                          : High@L3
Параметр CABAC формата                   : Нет
Параметр ReFrames формата                : 1 кадр
Идентификатор кодека                     : avc1
Идентификатор кодека/Информация          : Advanced Video Coding
Продолжительность                        : 38 м.
Битрейт                                  : 294 Кбит/сек
Номинальный битрейт                      : 1536 Кбит/сек
Максимальный битрейт                     : 4965 Кбит/сек
Ширина                                   : 960 пикселей
Высота                                   : 720 пикселей
Соотношение сторон                       : 4:3
Режим частоты кадров                     : Постоянный
Частота кадров                           : 24,000 кадра/сек
Цветовое пространство                    : YUV
Субдискретизация насыщенности            : 4:2:0
Битовая глубина                          : 8 бит
Тип развёртки                            : Прогрессивная
Бит/(Пиксели*Кадры)                      : 0.018
Размер потока                            : 81,6 Мбайт (72%)
Библиотека кодирования                   : x264 core 116 r2019 9cc407d
Настройки программы                      : cabac=0 / ref=1 / deblock=1:0:0 / analyse=0x3:0x113 / me=hex / subme=7 / psy=1 / psy_rd=1.00:0.00 / mixed_ref=0 / me_range=16 / chroma_me=1 / trellis=1 / 8x8dct=1 / cqm=0 / deadzone=21,11 / fast_pskip=1 / chroma_qp_offset=-2 / threads=6 / sliced_threads=0 / nr=0 / decimate=1 / interlaced=0 / bluray_compat=0 / constrained_intra=0 / bframes=0 / weightp=2 / keyint=250 / keyint_min=24 / scenecut=40 / intra_refresh=0 / rc_lookahead=40 / rc=abr / mbtree=1 / bitrate=1536 / ratetol=1.0 / qcomp=0.60 / qpmin=0 / qpmax=69 / qpstep=4 / ip_ratio=1.40 / aq=1:1.00
Дата кодирования                         : UTC 2014-07-11 09:16:41
Дата пометки                             : UTC 2014-07-11 09:16:44
Аудио
Идентификатор                            : 2
Формат                                   : AAC
Формат/Информация                        : Advanced Audio Codec
Профиль формата                          : LC
Идентификатор кодека                     : 40
Продолжительность                        : 38 м.
Вид битрейта                             : Переменный
Битрейт                                  : 115 Кбит/сек
Максимальный битрейт                     : 136 Кбит/сек
Каналы                                   : 2 канала
Расположение каналов                     : Front: L R
Частота                                  : 44,1 КГц
Метод сжатия                             : С потерями
Размер потока                            : 31,8 Мбайт (28%)
Дата кодирования                         : UTC 2014-07-11 09:16:43
Дата пометки                             : UTC 2014-07-11 09:16:44
Скриншоты:
Не жилим спасибо. Не забываем голосовать за трекер!!!

[Цитировать]

Где ссылка?


Показать сообщения:    

Текущее время: 18-Июл 06:00

Часовой пояс: UTC + 3


Вы не можете начинать темы
Вы не можете отвечать на сообщения
Вы не можете редактировать свои сообщения
Вы не можете удалять свои сообщения
Вы не можете голосовать в опросах
Вы не можете прикреплять файлы к сообщениям
Вы не можете скачивать файлы

!ВНИМАНИЕ!
Сайт не предоставляет электронные версии произведений, а занимается лишь коллекционированием и каталогизацией ссылок, присылаемых и публикуемых на форуме нашими читателями. Если вы являетесь правообладателем какого-либо представленного материала и не желаете, чтобы ссылка на него находилась в нашем каталоге, свяжитесь с нами, и мы незамедлительно удалим ее. Файлы для обмена на трекере предоставлены пользователями сайта, и администрация не несет ответственности за их содержание. Просьба не заливать файлы, защищенные авторскими правами, а также файлы нелегального содержания!