۩ ‼ Вы находитесь на Бесплатном торрент-трекере TORRNADA.com ۩ Зарегистрируйтесь для получения полного доступа ко всем функциям сайта ! ۩ После регистрации подпишитесь на нашу рассылку в своём профиле ۩
Auto Web Pinger

 

[Цитировать]

Специалист | 1С:Предприятие 8.2: Администрирование и оптимизация MS SQL Server для поддержки системы 1С:Предприятие (2013-2014) PCRec - Автор (режиссер): Специалист
Жанр: Администрирование 1С
Описание:
Когда программисты проигрывают битву за производительность, в бой вступают администраторы. На этом уникальном курсе Вы узнаете, как средствами СУБД Microsoft SQL Server повысить эффективность и надежность «1С: Предприятие 8.2».
Научитесь управлять базами и обеспечивать их безопасность при помощи SQL Server, овладеете инструментами мониторинга базы данных, а также сможете выполнять резервное копирование и восстановление базы данных системы «1С:Предприятие».

По окончании курса Вы будете уметь:

- Устанавливать SQL Server для использования совместно с 1С:Предприятие
- Управлять файлами базы данных 1С:Предприятия
- Настраивать безопасность и политику аудита баз данных 1С
- Разрабатывать стратегию восстановления данных
- Автоматизировать задачи администрирования SQL Server и баз данных 1С
- Мониторить производительность и активность SQL Server

Программа курса:

Модуль 1. Введение
Модуль 2. Архитектура 1С:Предприятия
Клиент-серверная архитектура
Базы данных и СУБД
SQL Server
Модуль 3. Знакомство с SQL-сервером
Службы и инструменты
Management Studio
Модуль 4. Управление хранением данных
Механизм журналирования
Работа с файлами базы данных
Оптимизация механизма хранения
Модуль 5. Резервное копирование и восстановление
Стратегии резервного копирования
Оптимизация резервного копирования
Резервное копирование в облако
Модуль 6. Защита данных
Процесс аутентификации
Учётные записи
Серверные роли
Роли базы данных
Отображение учётной записи в базе данных
Модуль 7. Автоматизация административных задач
Механизм SQL-агента
Задания SQL-агента
Работа с журналом агента
Настройка оповещений
Модуль 8. Регламентные задачи
Резервное копирование
Оптимизация индексов
Обновление статистики
Проверка целостности
Модуль 9. Установка
Процедура установки SQL-сервера
Настройка разрешений для SQL-сервера
Начальная настройка SQL-сервера
Выбор оптимального оборудования для поддержки базы 1С:Предприятия
Модуль 10. Отказоустойчивые конфигурации
Надёжность и отказоустойчивость
Работа базы данных в кластере
Зеркалирование базы данных
Группы доступности AlwaysOn
Модуль 11. Мониторинг
Сбор и анализ данных производительности
Типовые сценарии мониторинга
Типовые проблемы производительности
Качество видео: PCRec
Запись 2013 - Башкарев Олег
Видео: WMV3 1024х768 29.97fps 711 Kbps
Аудио: Windows Media Audio 44100Hz 1 channels 48kbps
Продолжительность: 16:13:25

Mediainfo:

General
Complete name                            : C:\1C82SKVL_(Специалист)\2013 - Башкарев Олег\01.1C82SKVL.2013-03-27.wmv
Format                                   : Windows Media
File size                                : 125 MiB
Duration                                 : 2h 50mn
Overall bit rate mode                    : Variable
Overall bit rate                         : 103 Kbps
Maximum Overall bit rate                 : 4 799 Kbps
Encoded date                             : UTC 2015-01-17 20:57:25.304
Writing application                      :  6.0 Build 1259 / GoToMeeting
BitRateFrom the writer                   : 96923
Audio samples                            : 129336
Video samples                            : 21100
recording time                           : Вс, 18 янв 2015 00:18:08 Московское время (зима)
Video
ID                                       : 2
Format                                   : VC-1
Format profile                           : MP@HL
Codec ID                                 : WMV3
Codec ID/Info                            : Windows Media Video 9
Codec ID/Hint                            : WMV3
Description of the codec                 : Windows Media Video 9
Bit rate mode                            : Variable
Bit rate                                 : 711 Kbps
Width                                    : 1 024 pixels
Height                                   : 768 pixels
Display aspect ratio                     : 4:3
Frame rate mode                          : Variable
Nominal frame rate                       : 29.970 fps
Color space                              : YUV
Chroma subsampling                       : 4:2:0
Bit depth                                : 8 bits
Scan type                                : Progressive
Compression mode                         : Lossy
Audio
ID                                       : 1
Format                                   : WMA
Format version                           : Version 2
Codec ID                                 : 161
Codec ID/Info                            : Windows Media Audio
Description of the codec                 : Windows Media Audio 9.2 -  48 kbps, 44 kHz, mono 1-pass CBR
Duration                                 : 2h 50mn
Bit rate mode                            : Constant
Bit rate                                 : 48.0 Kbps
Channel count                            : 1 channel
Sampling rate                            : 44.1 KHz
Bit depth                                : 16 bits
Stream size                              : 58.6 MiB (47%)
Запись 2014 - Самородов
Видео: WMV3 1280x1024 30.00fps 1053 Kbps
Аудио: Windows Media Audio 44100Hz 2 channels 112kbps
Продолжительность: 10:33:04

Mediainfo:

General
Complete name                            : C:\1C82SKVL_(Специалист)\2014 - Самородов\01_Znakomstvo.wmv
Format                                   : Windows Media
File size                                : 8.94 MiB
Duration                                 : 7mn 26s
Overall bit rate mode                    : Variable
Overall bit rate                         : 168 Kbps
Maximum Overall bit rate                 : 1 053 Kbps
Encoded date                             : UTC 2014-12-07 14:34:47.872
MediaFoundationVersion                   : 2.112
Video
ID                                       : 2
Format                                   : VC-1
Format profile                           : MP@HL
Codec ID                                 : WMV3
Codec ID/Info                            : Windows Media Video 9
Codec ID/Hint                            : WMV3
Description of the codec                 : Windows Media Video 9
Duration                                 : 7mn 26s
Bit rate mode                            : Variable
Bit rate                                 : 28.5 Kbps
Width                                    : 1 280 pixels
Height                                   : 1 024 pixels
Display aspect ratio                     : 5:4
Frame rate                               : 30.000 fps
Bit depth                                : 8 bits
Compression mode                         : Lossy
Bits/(Pixel*Frame)                       : 0.001
Stream size                              : 1.51 MiB (17%)
Language                                 : English (US)
Audio
ID                                       : 1
Format                                   : WMA
Format version                           : Version 2
Codec ID                                 : 161
Codec ID/Info                            : Windows Media Audio
Description of the codec                 : Windows Media Audio 9.2 - VBR Quality 90, 44 kHz, stereo 1-pass VBR
Duration                                 : 7mn 26s
Bit rate mode                            : Variable
Bit rate                                 : 112 Kbps
Channel count                            : 2 channels
Sampling rate                            : 44.1 KHz
Bit depth                                : 16 bits
Stream size                              : 5.94 MiB (66%)
Скриншоты:


Показать сообщения:    

Текущее время: 22-Июл 10:35

Часовой пояс: UTC + 3


Вы не можете начинать темы
Вы не можете отвечать на сообщения
Вы не можете редактировать свои сообщения
Вы не можете удалять свои сообщения
Вы не можете голосовать в опросах
Вы не можете прикреплять файлы к сообщениям
Вы не можете скачивать файлы

!ВНИМАНИЕ!
Сайт не предоставляет электронные версии произведений, а занимается лишь коллекционированием и каталогизацией ссылок, присылаемых и публикуемых на форуме нашими читателями. Если вы являетесь правообладателем какого-либо представленного материала и не желаете, чтобы ссылка на него находилась в нашем каталоге, свяжитесь с нами, и мы незамедлительно удалим ее. Файлы для обмена на трекере предоставлены пользователями сайта, и администрация не несет ответственности за их содержание. Просьба не заливать файлы, защищенные авторскими правами, а также файлы нелегального содержания!