۩ ‼ Вы находитесь на Бесплатном торрент-трекере TORRNADA.com ۩ Зарегистрируйтесь для получения полного доступа ко всем функциям сайта ! ۩ После регистрации подпишитесь на нашу рассылку в своём профиле ۩
Auto Web Pinger

 

[Цитировать]

The Scorpions - Moment of Glory (Live with the Berlin Philharmonic Orchestra) (2000/2013) BDRip [H.264/1080р] - Выпущено: США | Eagle Rock Entertainment
Жанр: Heavy Metal, Hard Rock, Symphonic Rock
Год выпуска: 2000/2013
Исполнитель: Клаус Майне, Рудольф Шенкер, Маттиас Ябс, Кристиан Колоновитц, Ральф Рикерманн, The Scorpions
Описание:
Концерт воссоединившейся группы Scorpions, исполнившей свои хиты 22 июня 2000 года в своём родном городе Ганновере с Берлинским филармоническим оркестром.
Продолжительность: 01:30:11
Качество видео: BDRip (1080р)
Контейнер: MKV
Битрейт видео: ~26,0 Mbps, (16:9), 1920x1080р, 29,970 fps, High Profile 4.1
Видеокодек: MPEG-4 AVC
Аудиокодек:DTS, AC3,
Аудио #1: DTS 5.1, 1509 kbps, 48 kHz, 16 bit
Аудио #2: AC3 2.0, 640 kbps, 48 kHz
Семпл
Релиз от
..

Треклист:

Треклист:
01. Hurricane 2000
02. Moment Of Glory
03. You And I
04. We Don't Own The World
05. Here In My Heart
06. We'll Burn The Sky
07. Big City Nights
08. Deadly Sting Suite
09. Wind Of Change
10. Still Loving You
11. Moment Of Glory (Encore)

h.264 log

---[Information] [05.03.2014 23:17:01] x264 [info]: profile High, level 4.1
---[Information] [06.03.2014 9:02:57] x264 [info]: frame I:633 Avg QP:17.25 size:283388
---[Information] [06.03.2014 9:02:57] x264 [info]: frame P:45181 Avg QP:19.54 size:166015
---[Information] [06.03.2014 9:02:57] x264 [info]: frame B:116354 Avg QP:21.48 size: 85116
---[Information] [06.03.2014 9:02:57] x264 [info]: consecutive B-frames: 1.6% 4.3% 37.2% 27.5% 10.4% 18.2% 0.3% 0.1% 0.3%
---[Information] [06.03.2014 9:02:57] x264 [info]: mb I I16..4: 3.4% 83.8% 12.8%
---[Information] [06.03.2014 9:02:57] x264 [info]: mb P I16..4: 1.7% 42.6% 3.2% P16..4: 23.3% 17.6% 8.1% 0.7% 0.1% skip: 2.7%
---[Information] [06.03.2014 9:02:57] x264 [info]: mb B I16..4: 0.4% 10.1% 0.5% B16..8: 33.9% 15.1% 3.8% direct:24.3% skip:11.9% L0:32.4% L1:34.1% BI:33.5%
---[Information] [06.03.2014 9:02:57] x264 [info]: 8x8 transform intra:90.3% inter:71.2%
---[Information] [06.03.2014 9:02:57] x264 [info]: direct mvs spatial:93.2% temporal:6.8%
---[Information] [06.03.2014 9:02:57] x264 [info]: coded y,uvDC,uvAC intra: 92.9% 86.9% 41.6% inter: 68.8% 58.3% 9.7%
---[Information] [06.03.2014 9:02:57] x264 [info]: i16 v,h,dc,p: 37% 22% 5% 37%
---[Information] [06.03.2014 9:02:57] x264 [info]: i8 v,h,dc,ddl,ddr,vr,hd,vl,hu: 19% 10% 9% 7% 10% 12% 9% 12% 12%
---[Information] [06.03.2014 9:02:57] x264 [info]: i4 v,h,dc,ddl,ddr,vr,hd,vl,hu: 16% 13% 3% 7% 12% 14% 13% 11% 12%
---[Information] [06.03.2014 9:02:57] x264 [info]: i8c dc,h,v,p: 33% 25% 24% 18%
---[Information] [06.03.2014 9:02:57] x264 [info]: Weighted P-Frames: Y:16.0% UV:12.2%
---[Information] [06.03.2014 9:02:57] x264 [info]: ref P L0: 48.6% 17.4% 22.0% 8.8% 3.0% 0.2%
---[Information] [06.03.2014 9:02:57] x264 [info]: ref B L0: 86.4% 11.2% 2.4%
---[Information] [06.03.2014 9:02:57] x264 [info]: ref B L1: 93.5% 6.5%
---[Information] [06.03.2014 9:02:57] x264 [info]: kb/s:25996.98

MediaInfo

Формат : Matroska
Версия формата : Version 1
Размер файла : 17,7 Гбайт
Продолжительность : 1 ч. 30 м.
Общий поток : 28,2 Мбит/сек
Дата кодирования : UTC 2014-03-06 03:35:09
Программа кодирования : mkvmerge v2.4.2 ('Oh My God') built on Jan 18 2009 17:30:28
Библиотека кодирования : libebml v0.7.7 + libmatroska v0.8.1
Видео
Идентификатор : 1
Формат : AVC
Формат/Информация : Advanced Video Codec
Профиль формата : High@L4.1
Параметр CABAC формата : Да
Параметр ReFrames формата : 4 кадра
Идентификатор кодека : V_MPEG4/ISO/AVC
Продолжительность : 1 ч. 30 м.
Битрейт : 26,0 Мбит/сек
Ширина : 1920 пикселей
Высота : 1080 пикселей
Соотношение сторон : 16:9
Режим частоты кадров : Постоянный
Частота кадров : 29,970 кадров/сек
Цветовое пространство : YUV
Субдискретизация насыщенности : 4:2:0
Битовая глубина : 8 бит
Тип развёртки : Прогрессивная
Бит/(Пиксели*Кадры) : 0.418
Размер потока : 16,0 Гбайт (90%)
Заголовок : garryson
Библиотека кодирования : x264 core 138 r2358 9e941d1
Настройки программы : cabac=1 / ref=4 / deblock=1:-2:-2 / analyse=0x3:0x133 / me=umh / subme=10 / psy=1 / psy_rd=1.00:0.15 / mixed_ref=1 / me_range=28 / chroma_me=1 / trellis=2 / 8x8dct=1 / cqm=0 / deadzone=21,11 / fast_pskip=0 / chroma_qp_offset=-3 / threads=12 / lookahead_threads=2 / sliced_threads=0 / nr=0 / decimate=1 / interlaced=0 / bluray_compat=0 / constrained_intra=0 / bframes=8 / b_pyramid=2 / b_adapt=2 / b_bias=0 / direct=3 / weightb=1 / open_gop=0 / weightp=2 / keyint=300 / keyint_min=29 / scenecut=40 / intra_refresh=0 / rc_lookahead=40 / rc=2pass / mbtree=1 / bitrate=26000 / ratetol=1.0 / qcomp=0.60 / qpmin=0 / qpmax=69 / qpstep=4 / cplxblur=20.0 / qblur=0.5 / ip_ratio=1.40 / aq=1:1.00
Язык : English
Default : Да
Forced : Нет
Аудио #1
Идентификатор : 2
Формат : DTS
Формат/Информация : Digital Theater Systems
Режим : 16
Параметр Endianness формата : Big
Идентификатор кодека : A_DTS
Продолжительность : 1 ч. 30 м.
Вид битрейта : Постоянный
Битрейт : 1509 Кбит/сек
Каналы : 6 каналов
Расположение каналов : Front: L C R, Side: L R, LFE
Частота : 48,0 КГц
Битовая глубина : 16 бит
Метод сжатия : С потерями
Размер потока : 973 Мбайт (5%)
Заголовок : DTS garryson
Язык : English
Default : Да
Forced : Нет
Аудио #2
Идентификатор : 3
Формат : AC-3
Формат/Информация : Audio Coding 3
Расширение режима : CM (complete main)
Параметр Endianness формата : Big
Идентификатор кодека : A_AC3
Продолжительность : 1 ч. 30 м.
Вид битрейта : Постоянный
Битрейт : 640 Кбит/сек
Каналы : 2 канала
Расположение каналов : Front: L R
Частота : 48,0 КГц
Метод сжатия : С потерями
Размер потока : 413 Мбайт (2%)
Заголовок : АС3 garryson
Язык : English
Default : Нет
Forced : Нет
Меню
00:00:00.000 : :Chapter 01
00:08:43.956 : :Chapter 02
00:14:43.449 : :Chapter 03
00:22:10.829 : :Chapter 04
00:31:44.602 : :Chapter 05
00:36:33.658 : :Chapter 06
00:43:37.915 : :Chapter 07
00:48:39.383 : :Chapter 08
01:04:46.382 : :Chapter 09
01:14:07.843 : :Chapter 10
01:22:56.871 : :Chapter 11
Скриншоты:
Не жилим спасибо. Не забываем голосовать за трекер!!!


Показать сообщения:    

Текущее время: 16-Июн 13:43

Часовой пояс: UTC + 3


Вы не можете начинать темы
Вы не можете отвечать на сообщения
Вы не можете редактировать свои сообщения
Вы не можете удалять свои сообщения
Вы не можете голосовать в опросах
Вы не можете прикреплять файлы к сообщениям
Вы не можете скачивать файлы

!ВНИМАНИЕ!
Сайт не предоставляет электронные версии произведений, а занимается лишь коллекционированием и каталогизацией ссылок, присылаемых и публикуемых на форуме нашими читателями. Если вы являетесь правообладателем какого-либо представленного материала и не желаете, чтобы ссылка на него находилась в нашем каталоге, свяжитесь с нами, и мы незамедлительно удалим ее. Файлы для обмена на трекере предоставлены пользователями сайта, и администрация не несет ответственности за их содержание. Просьба не заливать файлы, защищенные авторскими правами, а также файлы нелегального содержания!